<?xml version="1.0" standalone="no"?><!DOCTYPE svg PUBLIC "-//W3C//DTD SVG 1.1//EN" "http://www.w3.org/Graphics/SVG/1.1/DTD/svg11.dtd" ><svg xmlns="http://www.w3.org/2000/svg"><metadata>Generated by Glyphter</metadata><defs><font id="Glyphter" horiz-adv-x="1024"><font-face units-per-em="1024" ascent="960" descent="-64" font-family="Glyphter" font-weight="normal" /><missing-glyph horiz-adv-x="1024" /><glyph unicode="&#x0041;" d="M25,375.5C25,375.5,375,375.5,375,375.5C375,375.5,375,25.5,375,25.5C375,11.675,386.2,0.5,400,0.5C413.8,0.5,425,11.675,425,25.5C425,25.5,425,375.5,425,375.5C425,375.5,775,375.5,775,375.5C788.8,375.5,800,386.675,800,400.5C800,414.325,788.8,425.5,775,425.5C775,425.5,425,425.5,425,425.5C425,425.5,425,775.5,425,775.5C425,789.325,413.8,800.5,400,800.5C386.2,800.5,375,789.325,375,775.5C375,775.5,375,425.5,375,425.5C375,425.5,25,425.5,25,425.5C11.2,425.5,0,414.325,0,400.5C0,386.675,11.2,375.5,25,375.5C25,375.5,25,375.5,25,375.5" /><glyph unicode="&#x0042;" d="M524.575,75C538.375,75,549.575,86.175,549.575,100C549.575,113.825,538.375,125,524.575,125C524.575,125,25,125,25,125C11.2,125,0,113.825,0,100C0,86.175,11.2,75,25,75C25,75,524.575,75,524.575,75C524.575,75,524.575,75,524.575,75M775,325C775,325,25,325,25,325C11.2,325,0,313.825,0,300C0,286.175,11.2,275,25,275C25,275,775,275,775,275C788.8,275,800,286.175,800,300C800,313.825,788.8,325,775,325C775,325,775,325,775,325M775,725C775,725,25,725,25,725C11.2,725,0,713.825,0,700C0,686.175,11.2,675,25,675C25,675,775,675,775,675C788.8,675,800,686.175,800,700C800,713.825,788.8,725,775,725C775,725,775,725,775,725M25,475C25,475,524.575,475,524.575,475C538.375,475,549.575,486.175,549.575,500C549.575,513.825,538.375,525,524.575,525C524.575,525,25,525,25,525C11.2,525,0,513.825,0,500C0,486.175,11.175,475,25,475C25,475,25,475,25,475" /><glyph unicode="&#x0043;" d="M649.775,75C663.575,75,674.775,86.175,674.775,100C674.775,113.825,663.575,125,649.775,125C649.775,125,150.2,125,150.2,125C136.4,125,125.2,113.825,125.2,100C125.2,86.175,136.4,75,150.2,75C150.2,75,649.775,75,649.775,75C649.775,75,649.775,75,649.775,75M800,300C800,313.825,788.8,325,775,325C775,325,25,325,25,325C11.2,325,0,313.825,0,300C0,286.175,11.2,275,25,275C25,275,775,275,775,275C788.8,275,800,286.175,800,300C800,300,800,300,800,300M0,700C0,686.175,11.2,675,25,675C25,675,775,675,775,675C788.8,675,800,686.175,800,700C800,713.825,788.8,725,775,725C775,725,25,725,25,725C11.175,725,0,713.825,0,700C0,700,0,700,0,700M649.775,475C663.575,475,674.775,486.175,674.775,500C674.775,513.825,663.575,525,649.775,525C649.775,525,150.2,525,150.2,525C136.4,525,125.2,513.825,125.2,500C125.2,486.175,136.4,475,150.2,475C150.2,475,649.775,475,649.775,475C649.775,475,649.775,475,649.775,475" /><glyph unicode="&#x0044;" d="M775,125C775,125,275.4,125,275.4,125C261.6,125,250.4,113.825,250.4,100C250.4,86.175,261.6,75,275.4,75C275.4,75,774.975,75,774.975,75C788.775,75,799.975,86.175,799.975,100C799.975,113.825,788.8,125,775,125C775,125,775,125,775,125M800,300C800,313.825,788.8,325,775,325C775,325,25,325,25,325C11.2,325,0,313.825,0,300C0,286.175,11.2,275,25,275C25,275,775,275,775,275C788.8,275,800,286.175,800,300C800,300,800,300,800,300M775,725C775,725,25,725,25,725C11.2,725,0,713.825,0,700C0,686.175,11.2,675,25,675C25,675,775,675,775,675C788.8,675,800,686.175,800,700C800,713.825,788.8,725,775,725C775,725,775,725,775,725M775,525C775,525,275.4,525,275.4,525C261.6,525,250.4,513.825,250.4,500C250.4,486.175,261.6,475,275.4,475C275.4,475,774.975,475,774.975,475C788.775,475,799.975,486.175,799.975,500C799.975,513.825,788.8,525,775,525C775,525,775,525,775,525" /><glyph unicode="&#x0045;" d="M194.831,7.825C199.706,2.95,206.106,0.5,212.506,0.5C218.906,0.5,225.306,2.95,230.181,7.825C230.181,7.825,605.178,382.822,605.178,382.822C614.953,392.597,614.953,408.397,605.178,418.172C605.178,418.172,230.181,793.169,230.181,793.169C220.406,802.944,204.606,802.944,194.831,793.169C185.056,783.394,185.056,767.594,194.831,757.819C194.831,757.819,552.153,400.497,552.153,400.497C552.153,400.497,194.831,43.175,194.831,43.175C185.056,33.4,185.056,17.575,194.831,7.825C194.831,7.825,194.831,7.825,194.831,7.825" /><glyph unicode="&#x0046;" d="M756.675,550C756.675,563.825,745.475,575,731.675,575C731.675,575,25,575,25,575C11.2,575,0,563.825,0,550C0,550,0,250,0,250C0,236.175,11.2,225,25,225C25,225,731.675,225,731.675,225C745.475,225,756.675,236.175,756.675,250C756.675,250,756.675,304.25,756.675,304.25C756.675,304.25,775,304.25,775,304.25C788.8,304.25,800,315.425,800,329.25C800,329.25,800,463.425,800,463.425C800,477.25,788.8,488.425,775,488.425C775,488.425,756.675,488.425,756.675,488.425C756.675,488.425,756.675,550,756.675,550C756.675,550,756.675,550,756.675,550M706.675,275C706.675,275,50,275,50,275C50,275,50,525,50,525C50,525,706.675,525,706.675,525C706.675,525,706.675,275,706.675,275C706.675,275,706.675,275,706.675,275M127.125,300.1C140.925,300.1,152.125,311.275,152.125,325.1C152.125,325.1,152.125,474.9,152.125,474.9C152.125,488.725,140.925,499.9,127.125,499.9C113.325,499.9,102.125,488.725,102.125,474.9C102.125,474.9,102.125,325.1,102.125,325.1C102.125,311.275,113.325,300.1,127.125,300.1C127.125,300.1,127.125,300.1,127.125,300.1M227.425,300.1C241.225,300.1,252.425,311.275,252.425,325.1C252.425,325.1,252.425,474.9,252.425,474.9C252.425,488.725,241.225,499.9,227.425,499.9C213.625,499.9,202.425,488.725,202.425,474.9C202.425,474.9,202.425,325.1,202.425,325.1C202.425,311.275,213.625,300.1,227.425,300.1C227.425,300.1,227.425,300.1,227.425,300.1M327.75,300.1C341.55,300.1,352.75,311.275,352.75,325.1C352.75,325.1,352.75,474.9,352.75,474.9C352.75,488.725,341.55,499.9,327.75,499.9C313.95,499.9,302.75,488.725,302.75,474.9C302.75,474.9,302.75,325.1,302.75,325.1C302.75,311.275,313.95,300.1,327.75,300.1C327.75,300.1,327.75,300.1,327.75,300.1M428.05,300.1C441.85,300.1,453.05,311.275,453.05,325.1C453.05,325.1,453.05,474.9,453.05,474.9C453.05,488.725,441.85,499.9,428.05,499.9C414.25,499.9,403.05,488.725,403.05,474.9C403.05,474.9,403.05,325.1,403.05,325.1C403.05,311.275,414.25,300.1,428.05,300.1C428.05,300.1,428.05,300.1,428.05,300.1" /><glyph unicode="&#x0047;" d="M472.95,116.975C459.125,116.975,447.95,105.8,447.95,91.975C447.95,68.825,426.65,50,400.5,50C374.35,50,353.05,68.825,353.05,91.975C353.05,105.8,341.875,116.975,328.05,116.975C314.225,116.975,303.05,105.8,303.05,91.975C303.05,41.275,346.775,0,400.5,0C454.225,0,497.95,41.25,497.95,91.975C497.95,105.775,486.775,116.975,472.95,116.975C472.95,116.975,472.95,116.975,472.95,116.975M650.5,370.025C650.5,370.025,611.675,370.025,611.675,370.025C611.675,370.025,611.65,464.7,611.65,464.7C610.35,563.2,528.9,644.55,425.5,656.025C425.5,656.025,425.5,675.475,425.5,675.475C450.55,684.975,468.35,708.2,468.35,735.4C468.35,771.025,437.9,800,400.5,800C363.1,800,332.65,771.025,332.65,735.4C332.65,708.2,350.45,684.975,375.5,675.475C375.5,675.475,375.5,656.025,375.5,656.025C272.525,644.575,191.1,563.6,189.35,465.725C189.325,465.05,189.325,405.15,189.325,370.025C189.325,370.025,150.5,370.025,150.5,370.025C136.675,370.025,125.5,358.85,125.5,345.025C125.5,228.1,165.225,161.05,234.45,161.05C234.45,161.05,566.5,161.05,566.5,161.05C675.475,161.05,675.475,299.525,675.475,345.025C675.5,358.825,664.325,370.025,650.5,370.025C650.5,370.025,650.5,370.025,650.5,370.025M400.5,750C410.175,750,418.35,743.3,418.35,735.4C418.35,727.5,410.175,720.8,400.5,720.8C390.825,720.8,382.65,727.5,382.65,735.4C382.65,743.3,390.825,750,400.5,750C400.5,750,400.5,750,400.5,750M239.35,464.65C240.775,543.425,313.05,607.55,400.5,607.55C488.3,607.55,560.6,543.175,561.65,464.35C561.65,464.35,561.675,370.025,561.675,370.025C561.675,370.025,239.325,370.025,239.325,370.025C239.325,404.375,239.325,462.275,239.35,464.65C239.35,464.65,239.35,464.65,239.35,464.65M566.525,211.025C566.525,211.025,234.45,211.025,234.45,211.025C190.45,211.025,179.2,279.575,176.4,320C176.4,320,625.025,320,625.025,320C621.975,243.95,604,211.025,566.525,211.025C566.525,211.025,566.525,211.025,566.525,211.025" /><glyph unicode="&#x0048;" d="M675.5,0C689.3,0,700.5,11.175,700.5,25C700.5,25,700.5,640,700.5,640C700.5,640.55,700.225,641.025,700.175,641.575C700.025,643.825,699.6,646,698.85,648.125C698.55,648.975,698.325,649.775,697.95,650.575C696.825,652.975,695.375,655.225,693.475,657.2C693.325,657.35,693.25,657.575,693.075,657.725C693.05,657.75,693.025,657.8,693,657.85C693,657.85,555.5,792.85,555.5,792.85C553.425,794.875,551,796.35,548.45,797.55C547.675,797.9,546.875,798.1,546.05,798.375C543.925,799.1,541.75,799.55,539.5,799.7C539,799.725,538.55,800,538,800C538,800,125.5,800,125.5,800C111.7,800,100.5,788.825,100.5,775C100.5,775,100.5,25,100.5,25C100.5,11.175,111.7,0,125.5,0C125.5,0,675.5,0,675.5,0C675.5,0,675.5,0,675.5,0M563,715.4C563,715.4,614.35,664.975,614.35,664.975C614.35,664.975,563,664.975,563,664.975C563,664.975,563,715.4,563,715.4C563,715.4,563,715.4,563,715.4M150.5,750C150.5,750,513,750,513,750C513,750,513,640,513,640C513,626.175,524.2,615,538,615C538,615,650.5,615,650.5,615C650.5,615,650.5,50,650.5,50C650.5,50,150.5,50,150.5,50C150.5,50,150.5,750,150.5,750C150.5,750,150.5,750,150.5,750M580.025,395.75C580.025,395.75,233.55,395.75,233.55,395.75C219.75,395.75,208.55,384.575,208.55,370.75C208.55,356.925,219.75,345.75,233.55,345.75C233.55,345.75,580,345.75,580,345.75C593.8,345.75,605,356.925,605,370.75C605,384.575,593.825,395.75,580.025,395.75C580.025,395.75,580.025,395.75,580.025,395.75M580.025,500.75C580.025,500.75,233.55,500.75,233.55,500.75C219.75,500.75,208.55,489.575,208.55,475.75C208.55,461.925,219.75,450.75,233.55,450.75C233.55,450.75,580,450.75,580,450.75C593.8,450.75,605,461.925,605,475.75C605,489.575,593.825,500.75,580.025,500.75C580.025,500.75,580.025,500.75,580.025,500.75M580.025,290.775C580.025,290.775,233.55,290.775,233.55,290.775C219.75,290.775,208.55,279.6,208.55,265.775C208.55,251.95,219.75,240.775,233.55,240.775C233.55,240.775,580,240.775,580,240.775C593.8,240.775,605,251.95,605,265.775C605,279.6,593.825,290.775,580.025,290.775C580.025,290.775,580.025,290.775,580.025,290.775M580.025,185.775C580.025,185.775,233.55,185.775,233.55,185.775C219.75,185.775,208.55,174.6,208.55,160.775C208.55,146.95,219.75,135.775,233.55,135.775C233.55,135.775,580,135.775,580,135.775C593.8,135.775,605,146.95,605,160.775C605,174.6,593.825,185.775,580.025,185.775C580.025,185.775,580.025,185.775,580.025,185.775" /><glyph unicode="&#x0049;" d="M664.272,586.626C671.047,591.351,675.072,599.101,674.997,607.376C674.922,615.626,670.797,623.326,663.947,627.901C663.947,627.901,413.947,795.751,413.947,795.751C406.272,800.901,396.397,801.401,388.247,797.076C380.122,792.726,375.022,784.226,375.022,775.001C375.022,775.001,375.022,446.251,375.022,446.251C375.022,446.251,348.147,427.551,348.147,427.551C348.147,427.551,164.447,557.326,164.447,557.326C153.147,565.301,137.571,562.626,129.596,551.351C121.621,540.076,124.296,524.476,135.571,516.501C135.571,516.501,304.472,397.176,304.472,397.176C304.472,397.176,135.721,279.776,135.721,279.776C124.396,271.9,121.596,256.3,129.471,244.95C137.346,233.6,152.947,230.825,164.297,238.7C164.297,238.7,347.922,366.476,347.922,366.476C347.922,366.476,375.022,347.326,375.022,347.326C375.022,347.326,375.022,25,375.022,25C375.022,15.875,379.972,7.5,387.997,3.1C391.747,1.025,395.872,0,400.022,0C404.697,0,409.347,1.3,413.422,3.875C413.422,3.875,663.422,162.55,663.422,162.55C670.447,167.025,674.797,174.7,675.022,183.05C675.222,191.375,671.272,199.25,664.447,204.075C664.447,204.075,425.022,373.251,425.022,373.251C425.022,373.251,425.022,420.151,425.022,420.151C425.022,420.151,664.272,586.626,664.272,586.626C664.272,586.626,664.272,586.626,664.272,586.626M424.997,728.101C424.997,728.101,605.697,606.776,605.697,606.776C605.697,606.776,424.997,481.051,424.997,481.051C424.997,481.051,424.997,728.101,424.997,728.101C424.997,728.101,424.997,728.101,424.997,728.101M605.097,184.8C605.097,184.8,424.997,70.5,424.997,70.5C424.997,70.5,424.997,312.001,424.997,312.001C424.997,312.001,605.097,184.8,605.097,184.8C605.097,184.8,605.097,184.8,605.097,184.8" /><glyph unicode="&#x004A;" d="M25,75.5C25,75.5,775,75.5,775,75.5C788.825,75.5,800,86.675,800,100.5C800,100.5,800,700.45,800,700.45C800,714.275,788.825,725.45,775,725.45C775,725.45,25,725.45,25,725.45C11.175,725.45,0,714.275,0,700.45C0,700.45,0,100.5,0,100.5C0,86.675,11.175,75.5,25,75.5C25,75.5,25,75.5,25,75.5M50,125.5C50,125.5,50,496.375,50,496.375C50,496.375,750,496.375,750,496.375C750,496.375,750,125.5,750,125.5C750,125.5,50,125.5,50,125.5C50,125.5,50,125.5,50,125.5M750,675.45C750,675.45,750,546.375,750,546.375C750,546.375,50,546.375,50,546.375C50,546.375,50,675.45,50,675.45C50,675.45,750,675.45,750,675.45C750,675.45,750,675.45,750,675.45M107.925,610.825C107.925,593.225,126.975,582.2,142.225,591.025C149.325,595.1,153.675,602.65,153.675,610.825C153.675,628.425,134.625,639.45,119.375,630.625C112.275,626.55,107.925,619,107.925,610.825M196.95,610.825C196.95,593.225,216,582.2,231.25,591.025C238.35,595.1,242.7,602.65,242.7,610.825C242.7,628.425,223.65,639.45,208.4,630.625C201.3,626.55,196.95,619,196.95,610.825M285.975,610.825C285.975,593.225,305.025,582.2,320.275,591.025C327.375,595.1,331.725,602.65,331.725,610.825C331.725,628.425,312.675,639.45,297.425,630.625C290.325,626.55,285.975,619,285.975,610.825" /><glyph unicode="&#x004B;" d="M604.9,573.1C604.9,573.1,587.075,679.15,587.075,679.15C585.05,691.175,574.625,700,562.425,700C562.425,700,237.45,700,237.45,700C225.25,700,214.825,691.175,212.8,679.125C212.8,679.125,195.025,573.1,195.025,573.1C195.025,573.1,25,573.1,25,573.1C11.2,573.1,0,561.925,0,548.1C0,548.1,0,125,0,125C0,111.175,11.2,100,25,100C25,100,775,100,775,100C788.8,100,800,111.175,800,125C800,125,800,548.1,800,548.1C800,561.925,788.8,573.1,775,573.1C775,573.1,604.9,573.1,604.9,573.1C604.9,573.1,604.9,573.1,604.9,573.1M750,150C750,150,50,150,50,150C50,150,50,523.1,50,523.1C50,523.1,216.175,523.1,216.175,523.1C228.375,523.1,238.8,531.925,240.825,543.975C240.825,543.975,258.6,650,258.6,650C258.6,650,541.275,650,541.275,650C541.275,650,559.1,543.95,559.1,543.95C561.125,531.925,571.55,523.1,583.75,523.1C583.75,523.1,750,523.1,750,523.1C750,523.1,750,150,750,150C750,150,750,150,750,150M400,515.15C317.275,515.15,250,448.375,250,366.325C250,284.275,317.275,217.5,400,217.5C482.725,217.5,550,284.275,550,366.325C550,448.375,482.725,515.15,400,515.15C400,515.15,400,515.15,400,515.15M400,267.5C344.85,267.5,300,311.825,300,366.325C300,420.825,344.85,465.15,400,465.15C455.15,465.15,500,420.825,500,366.325C500,311.825,455.15,267.5,400,267.5C400,267.5,400,267.5,400,267.5" /><glyph unicode="&#x004C;" d="M770.215,712.024C770.215,712.024,620.221,683,620.221,683C608.472,680.725,599.972,670.451,599.972,658.476C599.972,658.476,599.972,557.555,599.972,557.555C599.972,557.555,24.996,557.555,24.996,557.555C15.722,557.555,7.197,552.406,2.872,544.206C-1.453,536.006,-0.853,526.057,4.397,518.432C4.397,518.432,142.591,317.065,142.591,317.065C147.266,310.266,154.966,306.191,163.19,306.191C163.19,306.191,570.274,306.191,570.274,306.191C570.274,306.191,570.424,250.718,570.424,250.718C570.424,250.718,225.013,250.718,225.013,250.718C224.613,250.718,224.288,250.518,223.888,250.493C223.138,250.518,222.463,250.718,221.713,250.718C177.84,250.718,142.141,214.12,142.141,169.122C142.141,124.123,177.84,87.5,221.713,87.5C265.561,87.5,301.26,124.123,301.26,169.122C301.26,180.321,299.035,190.996,295.035,200.72C295.035,200.72,500.551,200.72,500.551,200.72C496.552,190.996,494.327,180.321,494.327,169.122C494.327,124.123,530.025,87.5,573.873,87.5C617.722,87.5,653.42,124.123,653.42,169.122C653.42,196.195,640.346,220.069,620.496,234.919C620.496,234.919,620.321,306.166,620.321,306.166C620.321,306.166,625.021,306.166,625.021,306.166C638.846,306.166,650.02,317.34,650.02,331.165C650.02,331.165,650.02,532.531,650.02,532.531C650.02,533.231,649.67,533.806,649.62,534.506C649.67,535.181,650.02,535.781,650.02,536.481C650.02,536.481,650.02,637.852,650.02,637.852C650.02,637.852,779.765,662.976,779.765,662.976C793.314,665.576,802.164,678.7,799.539,692.275C796.914,705.799,783.865,714.774,770.215,712.024C770.215,712.024,770.215,712.024,770.215,712.024M221.713,137.498C205.414,137.498,192.139,151.672,192.139,169.122C192.139,186.571,205.389,200.72,221.713,200.72C237.987,200.72,251.262,186.571,251.262,169.122C251.262,151.672,237.987,137.498,221.713,137.498C221.713,137.498,221.713,137.498,221.713,137.498M573.873,137.498C557.599,137.498,544.325,151.672,544.325,169.122C544.325,186.571,557.574,200.72,573.873,200.72C590.173,200.72,603.422,186.571,603.422,169.122C603.422,151.672,590.148,137.498,573.873,137.498C573.873,137.498,573.873,137.498,573.873,137.498M72.494,507.532C72.494,507.532,599.997,507.532,599.997,507.532C599.997,507.532,599.997,356.164,599.997,356.164C599.997,356.164,176.39,356.164,176.39,356.164C176.39,356.164,72.494,507.532,72.494,507.532C72.494,507.532,72.494,507.532,72.494,507.532" /><glyph unicode="&#x004D;" d="M143.725,175.85C145.425,174.8,145.825,174.1,146.125,172.475C148.475,159.7,133.7,131.9,122.125,116.75C116.9,109.9,115.55,100.825,118.575,92.775C121.6,84.725,128.525,78.75,136.975,77.025C143.925,75.625,150.575,75,156.925,75C195.875,75,223.15,99.05,240.45,114.275C244.15,117.55,248.925,121.775,252.075,124.025C288.775,115.6,345.3,108.925,381.15,108.925C401.1,108.925,421.075,110.35,440.75,112.825C470.7,103.125,503.25,97.625,537.375,97.625C561.05,97.625,596.35,101.65,621.55,107.075C622.875,105.925,624.25,104.625,625.775,103.3C637.75,92.725,657.85,75,687.025,75C691.775,75,696.75,75.475,701.975,76.525C710.4,78.25,717.325,84.2,720.375,92.25C723.4,100.3,722.05,109.4,716.825,116.225C709.75,125.55,703.275,138.65,702.45,144.95C763.575,183.9,800,245.975,800,311.525C800,351.9,785.925,389.575,761.95,421.825C758.7,589.425,589.25,725,381.125,725C170.975,725,0,586.825,0,416.975C0.025,321.85,53.75,231.725,143.725,175.85C143.725,175.85,143.725,175.85,143.725,175.85M673.825,186.025C662.675,179.1,655.55,168.65,653.225,155.825C652.65,152.675,652.4,149.5,652.45,146.325C644.7,152.65,635.85,158.25,624.575,158.25C622.55,158.25,618.8,157.775,616.8,157.3C595.625,152.075,559.25,147.65,537.375,147.65C420.125,147.65,324.725,221.15,324.725,311.55C324.725,401.9,420.1,475.425,537.375,475.425C654.65,475.425,750.025,401.925,750.025,311.55C750.025,261.85,722.25,216.1,673.825,186.025C673.825,186.025,673.825,186.025,673.825,186.025M381.15,675C536.95,675,667.6,590.625,702.7,477.5C657.525,507.4,600,525.4,537.375,525.4C392.55,525.4,274.725,429.45,274.725,311.525C274.725,252.45,304.3,198.875,352.025,160.15C320.725,162.45,283.425,167.75,259.15,173.75C238.05,179,221.8,164.525,207.375,151.8C201.4,146.525,195.75,141.725,190.175,137.7C195.125,151.775,197.925,167.05,195.3,181.425C192.45,197.1,183.725,209.875,170.075,218.35C94.9,265.025,50,339.3,50,417C50.025,559.25,198.575,675,381.15,675C381.15,675,381.15,675,381.15,675" /><glyph unicode="&#x004E;" d="M757.819,668.167C757.819,668.167,275.502,185.849,275.502,185.849C275.502,185.849,43.181,418.17,43.181,418.17C33.406,427.945,17.606,427.945,7.831,418.17C-1.944,408.396,-1.944,392.596,7.831,382.821C7.831,382.821,257.827,132.825,257.827,132.825C262.702,127.95,269.102,125.5,275.502,125.5C281.902,125.5,288.302,127.95,293.177,132.825C293.177,132.825,793.169,632.817,793.169,632.817C802.944,642.592,802.944,658.392,793.169,668.167C783.394,677.941,767.569,677.941,757.819,668.167C757.819,668.167,757.819,668.167,757.819,668.167" /><glyph unicode="&#x004F;" d="M400,0C620.55,0,800,179.45,800,400C800,620.55,620.55,800,400,800C179.45,800,0,620.55,0,400C0,179.45,179.45,0,400,0C400,0,400,0,400,0M400,750C593,750,750,593,750,400C750,207,593,50,400,50C207,50,50,207,50,400C50,593,207.025,750,400,750C400,750,400,750,400,750M536.425,228.225C541.3,223.35,547.7,220.9,554.1,220.9C560.5,220.9,566.9,223.35,571.775,228.225C581.55,238,581.55,253.8,571.775,263.575C571.775,263.575,425,410.35,425,410.35C425,410.35,425,680.25,425,680.25C425,694.05,413.825,705.25,400,705.25C386.175,705.25,375,694.05,375,680.25C375,680.25,375,400,375,400C375,393.375,377.625,387,382.325,382.325C382.325,382.325,536.425,228.225,536.425,228.225C536.425,228.225,536.425,228.225,536.425,228.225" /><glyph unicode="&#x0050;" d="M7.334,7.8C12.209,2.925,18.609,0.5,25.009,0.5C31.409,0.5,37.808,2.95,42.708,7.825C42.708,7.825,400,365.541,400,365.541C400,365.541,757.292,7.825,757.292,7.825C762.167,2.925,768.566,0.5,774.991,0.5C781.391,0.5,787.791,2.95,792.666,7.8C802.441,17.55,802.441,33.374,792.691,43.149C792.691,43.149,435.749,400.491,435.749,400.491C435.749,400.491,792.666,757.807,792.666,757.807C802.416,767.582,802.416,783.407,792.641,793.156C782.841,802.931,767.041,802.931,757.292,793.131C757.292,793.131,399.975,435.415,399.975,435.415C399.975,435.415,42.683,793.131,42.683,793.131C32.909,802.906,17.084,802.906,7.334,793.156C-2.441,783.407,-2.441,767.582,7.309,757.807C7.309,757.807,364.201,400.491,364.201,400.491C364.201,400.491,7.309,43.149,7.309,43.149C-2.441,33.399,-2.441,17.55,7.334,7.8C7.334,7.8,7.334,7.8,7.334,7.8" /><glyph unicode="&#x0051;" d="M601.47,800C526.895,800,465.12,744.1,454.295,671.475C454.295,671.475,75.495,671.475,75.495,671.475C65.42,671.475,56.32,665.425,52.445,656.15C48.545,646.85,50.62,636.125,57.67,628.95C57.67,628.95,326.12,355.875,326.12,355.875C326.12,355.875,326.12,50,326.12,50C326.12,50,263.845,50,263.845,50C250.045,50,238.845,38.825,238.845,25C238.845,11.175,250.045,0,263.845,0C263.845,0,438.395,0,438.395,0C452.195,0,463.395,11.175,463.395,25C463.395,38.825,452.195,50,438.395,50C438.395,50,376.12,50,376.12,50C376.12,50,376.12,355.875,376.12,355.875C376.12,355.875,532.47,514.925,532.47,514.925C553.67,503.65,577.12,497.65,601.47,497.65C683.645,497.65,750.495,565.475,750.495,648.825C750.495,732.175,683.645,800,601.47,800C601.47,800,601.47,800,601.47,800M567.095,621.5C567.095,621.5,351.12,401.8,351.12,401.8C351.12,401.8,135.12,621.5,135.12,621.5C135.12,621.5,567.095,621.5,567.095,621.5C567.095,621.5,567.095,621.5,567.095,621.5M601.47,547.675C590.57,547.675,579.97,549.55,569.895,553C569.895,553,644.57,628.975,644.57,628.975C651.62,636.15,653.695,646.875,649.795,656.175C645.895,665.45,636.795,671.5,626.745,671.5C626.745,671.5,505.17,671.5,505.17,671.5C515.295,716.375,554.52,750.025,601.495,750.025C656.095,750.025,700.52,704.65,700.52,648.85C700.52,593.05,656.07,547.675,601.47,547.675C601.47,547.675,601.47,547.675,601.47,547.675" /><glyph unicode="&#x0052;" d="M400,0C620.55,0,800,179.45,800,400C800,620.55,620.55,800,400,800C179.45,800,0,620.55,0,400C0,179.45,179.45,0,400,0C400,0,400,0,400,0M400,750C593,750,750,593,750,400C750,207,593,50,400,50C207,50,50,207,50,400C50,593,207,750,400,750C400,750,400,750,400,750M225,200C228.7,200,232.475,200.825,235.95,202.55C235.95,202.55,471.025,317.4,471.025,317.4C476.025,319.85,480.075,323.875,482.5,328.875C482.5,328.875,597.425,564.025,597.425,564.025C602.125,573.625,600.2,585.125,592.65,592.675C585.125,600.2,573.625,602.15,564,597.45C564,597.45,328.85,482.525,328.85,482.525C323.85,480.075,319.8,476.05,317.375,471.05C317.375,471.05,202.525,235.975,202.525,235.975C197.825,226.375,199.75,214.875,207.3,207.325C212.125,202.525,218.5,200,225,200C225,200,225,200,225,200M358.525,441.375C358.525,441.375,520.55,520.55,520.55,520.55C520.55,520.55,441.375,358.525,441.375,358.525C441.375,358.525,279.4,279.4,279.4,279.4C279.4,279.4,358.525,441.375,358.525,441.375C358.525,441.375,358.525,441.375,358.525,441.375" /><glyph unicode="&#x0053;" d="M26.886,3.658C26.886,3.658,133.546,3.658,133.546,3.658C147.283,3.658,158.431,14.782,158.431,28.544C158.431,28.544,158.431,210.558,158.431,210.558C158.431,224.32,147.283,235.443,133.546,235.443C133.546,235.443,26.886,235.443,26.886,235.443C13.149,235.443,2,224.32,2,210.558C2,210.558,2,28.544,2,28.544C2,14.807,13.149,3.658,26.886,3.658C26.886,3.658,26.886,3.658,26.886,3.658M51.771,185.697C51.771,185.697,108.66,185.697,108.66,185.697C108.66,185.697,108.66,53.454,108.66,53.454C108.66,53.454,51.771,53.454,51.771,53.454C51.771,53.454,51.771,185.697,51.771,185.697C51.771,185.697,51.771,185.697,51.771,185.697M641.91,775.114C641.91,775.114,641.91,28.544,641.91,28.544C641.91,14.782,653.059,3.658,666.796,3.658C666.796,3.658,773.456,3.658,773.456,3.658C787.193,3.658,798.342,14.782,798.342,28.544C798.342,28.544,798.342,775.114,798.342,775.114C798.342,788.876,787.193,800,773.456,800C773.456,800,666.796,800,666.796,800C653.059,800,641.91,788.876,641.91,775.114C641.91,775.114,641.91,775.114,641.91,775.114M691.682,750.229C691.682,750.229,748.57,750.229,748.57,750.229C748.57,750.229,748.57,53.43,748.57,53.43C748.57,53.43,691.682,53.43,691.682,53.43C691.682,53.43,691.682,750.229,691.682,750.229C691.682,750.229,691.682,750.229,691.682,750.229M346.766,398.196C346.766,398.196,240.106,398.196,240.106,398.196C226.369,398.196,215.221,387.072,215.221,373.31C215.221,373.31,215.221,24.911,215.221,24.911C215.221,11.149,226.369,0.025,240.106,0.025C240.106,0.025,346.766,0.025,346.766,0.025C360.503,0.025,371.652,11.149,371.652,24.911C371.652,24.911,371.652,373.31,371.652,373.31C371.652,387.072,360.503,398.196,346.766,398.196C346.766,398.196,346.766,398.196,346.766,398.196M321.881,49.796C321.881,49.796,264.992,49.796,264.992,49.796C264.992,49.796,264.992,348.424,264.992,348.424C264.992,348.424,321.881,348.424,321.881,348.424C321.881,348.424,321.881,49.796,321.881,49.796C321.881,49.796,321.881,49.796,321.881,49.796M428.541,538.526C428.541,538.526,428.541,24.886,428.541,24.886C428.541,11.124,439.689,0,453.426,0C453.426,0,560.086,0,560.086,0C573.823,0,584.972,11.124,584.972,24.886C584.972,24.886,584.972,538.526,584.972,538.526C584.972,552.288,573.823,563.412,560.086,563.412C560.086,563.412,453.426,563.412,453.426,563.412C439.689,563.412,428.541,552.288,428.541,538.526C428.541,538.526,428.541,538.526,428.541,538.526M478.312,513.64C478.312,513.64,535.201,513.64,535.201,513.64C535.201,513.64,535.201,49.771,535.201,49.771C535.201,49.771,478.312,49.771,478.312,49.771C478.312,49.771,478.312,513.64,478.312,513.64C478.312,513.64,478.312,513.64,478.312,513.64" /><glyph unicode="&#x0054;" d="M699.706,52.423C700.231,54.423,700.481,56.498,700.481,58.648C700.481,58.648,700.481,276.916,700.481,276.916C700.481,313.615,670.082,343.439,632.708,343.439C632.708,343.439,627.934,343.439,627.934,343.439C620.934,343.439,614.134,342.414,607.734,340.489C599.309,367.814,573.41,387.763,542.861,387.763C542.861,387.763,538.086,387.763,538.086,387.763C531.212,387.763,524.562,386.763,518.287,384.913C510.262,412.887,484.063,433.436,453.039,433.436C453.039,433.436,448.264,433.436,448.264,433.436C442.314,433.436,436.514,432.711,431.015,431.287C431.015,431.287,431.015,542.733,431.015,542.733C431.015,579.432,400.591,609.256,363.217,609.256C363.217,609.256,358.442,609.256,358.442,609.256C321.068,609.256,290.669,579.432,290.669,542.733C290.669,542.733,290.669,234.268,290.669,234.268C290.669,234.268,262.87,261.267,262.87,261.267C237.346,286.116,192.972,286.041,167.573,261.342C167.573,261.342,164.123,258.017,164.123,258.017C151.148,245.417,143.999,228.618,143.999,210.693C143.999,192.769,151.148,175.97,163.048,164.47C163.048,164.47,294.319,20.399,294.319,20.399C305.469,7.425,321.818,0,339.118,0C339.118,0,641.283,0,641.283,0C671.582,0.025,696.631,22.774,699.706,52.423C699.706,52.423,699.706,52.423,699.706,52.423M331.718,53.598C331.718,53.598,198.897,199.294,198.897,199.294C195.722,202.369,193.972,206.444,193.972,210.718C193.972,214.993,195.722,219.068,198.847,222.093C198.847,222.093,202.322,225.443,202.322,225.443C205.697,228.743,210.247,230.543,215.146,230.543C220.046,230.543,224.596,228.743,227.996,225.418C227.996,225.418,298.244,157.22,298.244,157.22C305.444,150.245,316.118,148.245,325.393,152.145C334.643,156.045,340.642,165.145,340.642,175.17C340.642,175.17,340.642,542.733,340.642,542.733C340.642,551.833,348.617,559.258,358.417,559.258C358.417,559.258,363.192,559.258,363.192,559.258C373.016,559.258,380.991,551.833,380.991,542.733C380.991,542.733,380.991,373.288,380.991,373.288C380.991,360.264,391.016,349.389,404.041,348.364C416.99,347.314,428.64,356.489,430.665,369.388C431.94,377.388,439.514,383.463,448.239,383.463C448.239,383.463,453.014,383.463,453.014,383.463C462.814,383.463,470.788,376.038,470.788,366.939C470.788,366.939,470.788,327.615,470.788,327.615C470.788,314.59,480.813,303.716,493.813,302.691C507.087,301.691,518.437,310.79,520.462,323.69C521.762,331.715,529.312,337.789,538.061,337.789C538.061,337.789,542.836,337.789,542.836,337.789C552.636,337.789,560.611,330.365,560.611,321.24C560.611,321.24,560.611,283.291,560.611,283.291C560.611,270.267,570.635,259.392,583.635,258.367C596.959,257.442,608.259,266.467,610.284,279.366C611.584,287.391,619.134,293.466,627.884,293.466C627.884,293.466,632.708,293.466,632.708,293.466C642.508,293.466,650.483,286.041,650.483,276.941C650.483,276.941,650.483,62.698,650.483,62.698C650.183,61.123,650.008,59.473,650.008,57.848C650.008,53.548,646.083,50.048,641.233,50.048C641.233,50.048,339.093,50.048,339.093,50.048C336.368,50.023,333.843,51.123,331.718,53.598C331.718,53.598,331.718,53.598,331.718,53.598M100.5,568.657C100.5,554.833,111.675,543.658,125.499,543.658C125.499,543.658,209.172,543.658,209.172,543.658C222.996,543.658,234.171,554.833,234.171,568.657C234.171,582.482,222.996,593.656,209.172,593.656C209.172,593.656,125.499,593.656,125.499,593.656C111.675,593.656,100.5,582.482,100.5,568.657C100.5,568.657,100.5,568.657,100.5,568.657M386.666,693.778C386.666,693.778,386.666,775.001,386.666,775.001C386.666,788.825,375.491,800,361.667,800C347.842,800,336.668,788.825,336.668,775.001C336.668,775.001,336.668,693.778,336.668,693.778C336.668,679.954,347.842,668.779,361.667,668.779C375.491,668.779,386.666,679.979,386.666,693.778C386.666,693.778,386.666,693.778,386.666,693.778M268.52,626.155C268.695,626.155,268.895,626.13,269.02,626.155C282.844,626.155,294.019,637.33,294.019,651.155C294.019,659.704,289.744,667.254,283.194,671.754C283.194,671.754,226.771,726.502,226.771,726.502C216.871,736.127,201.047,735.877,191.422,725.977C181.797,716.078,182.047,700.253,191.947,690.628C191.947,690.628,251.095,633.205,251.095,633.205C255.97,628.505,262.245,626.155,268.52,626.155C268.52,626.155,268.52,626.155,268.52,626.155M487.088,568.657C487.088,554.833,498.263,543.658,512.087,543.658C512.087,543.658,595.76,543.658,595.76,543.658C609.584,543.658,620.759,554.833,620.759,568.657C620.759,582.482,609.584,593.656,595.76,593.656C595.76,593.656,512.087,593.656,512.087,593.656C498.263,593.656,487.088,582.482,487.088,568.657C487.088,568.657,487.088,568.657,487.088,568.657M494.488,726.527C494.488,726.527,435.34,669.104,435.34,669.104C425.44,659.479,425.19,643.655,434.815,633.755C439.714,628.705,446.239,626.155,452.764,626.155C459.039,626.155,465.314,628.505,470.163,633.205C470.163,633.205,529.337,690.653,529.337,690.653C539.236,700.278,539.436,716.103,529.837,726.002C520.237,735.877,504.387,736.152,494.488,726.527C494.488,726.527,494.488,726.527,494.488,726.527" /><glyph unicode="&#x0055;" d="M775,775C775,775,25,775,25,775C11.175,775,0,763.825,0,750C0,750,0,176.95,0,176.95C0,163.125,11.175,151.95,25,151.95C25,151.95,375,151.95,375,151.95C375,151.95,375,75,375,75C375,75,216.575,75,216.575,75C202.75,75,191.575,63.825,191.575,50C191.575,36.175,202.75,25,216.575,25C216.575,25,583.425,25,583.425,25C597.25,25,608.425,36.175,608.425,50C608.425,63.825,597.25,75,583.425,75C583.425,75,425,75,425,75C425,75,425,151.95,425,151.95C425,151.95,775,151.95,775,151.95C788.825,151.95,800,163.125,800,176.95C800,176.95,800,750,800,750C800,763.8,788.825,775,775,775C775,775,775,775,775,775M750,725C750,725,750,374.35,750,374.35C750,374.35,50,374.35,50,374.35C50,374.35,50,725,50,725C50,725,750,725,750,725C750,725,750,725,750,725M50,201.95C50,201.95,50,324.35,50,324.35C50,324.35,750,324.35,750,324.35C750,324.35,750,201.95,750,201.95C750,201.95,50,201.95,50,201.95C50,201.95,50,201.95,50,201.95M377.125,260.9C377.125,243.125,396.175,232.025,411.425,240.925C418.525,245.05,422.875,252.65,422.875,260.9C422.875,278.675,403.825,289.775,388.575,280.875C381.475,276.75,377.125,269.15,377.125,260.9" /><glyph unicode="&#x0056;" d="M50,203.325C36.175,203.325,25,192.125,25,178.325C25,178.325,25,25,25,25C25,11.2,36.175,0,50,0C50,0,750,0,750,0C763.825,0,775,11.2,775,25C775,25,775,178.325,775,178.325C775,192.125,763.825,203.325,750,203.325C736.175,203.325,725,192.125,725,178.325C725,178.325,725,50,725,50C725,50,75,50,75,50C75,50,75,178.325,75,178.325C75,192.125,63.825,203.325,50,203.325C50,203.325,50,203.325,50,203.325M400,800C386.175,800,375,788.8,375,775C375,775,375,237.25,375,237.25C375,237.25,216.425,390.425,216.425,390.425C206.55,400.025,190.675,399.75,181.1,389.825C171.5,379.9,171.775,364.075,181.7,354.475C181.7,354.475,382.275,160.7,382.275,160.7C382.3,160.675,382.3,160.675,382.325,160.65C382.325,160.65,382.625,160.375,382.625,160.375C383.55,159.475,384.725,159.1,385.725,158.375C387.275,157.25,388.725,156,390.525,155.275C393.55,154.025,396.75,153.375,399.975,153.375C403.2,153.375,406.4,154.05,409.425,155.275C411.1,155.95,412.425,157.125,413.875,158.15C415.025,158.925,416.325,159.4,417.35,160.4C417.35,160.4,618.25,354.525,618.25,354.525C628.15,364.125,628.425,379.95,618.825,389.875C609.225,399.8,593.4,400.075,583.475,390.475C583.475,390.475,425,237.25,425,237.25C425,237.25,425,775,425,775C425,788.8,413.825,800,400,800C400,800,400,800,400,800" /><glyph unicode="&#x0057;" d="M400,0C565.425,0,700,129.7,700,289.1C700,341.95,685.025,393.7,656.275,439.4C656.275,439.4,420.5,788.975,420.5,788.975C415.85,795.875,408.075,800,399.775,800C391.45,800,383.675,795.85,379.05,788.975C379.05,788.975,143.15,438.525,143.15,438.525C114.925,393.575,100,341.9,100,289.125C100,129.7,234.575,0,400,0C400,0,400,0,400,0M185.05,411.25C185.05,411.25,399.8,730.25,399.8,730.25C399.8,730.25,614.4,412.1,614.4,412.1C637.725,375.05,650.025,332.5,650.025,289.1C650.025,157.25,537.875,50,400.025,50C262.175,50,150.025,157.275,150.025,289.1C150,332.475,162.3,374.95,185.05,411.25C185.05,411.25,185.05,411.25,185.05,411.25" /><glyph unicode="&#x0058;" d="M675.5,0C689.3,0,700.5,11.175,700.5,25C700.5,25,700.5,640,700.5,640C700.5,640.55,700.225,641.025,700.175,641.575C700.025,643.825,699.6,646,698.85,648.125C698.55,648.975,698.325,649.775,697.95,650.575C696.825,652.975,695.375,655.225,693.475,657.2C693.325,657.35,693.25,657.575,693.075,657.725C693.05,657.75,693.025,657.8,693,657.85C693,657.85,555.5,792.85,555.5,792.85C553.425,794.875,551,796.35,548.45,797.55C547.675,797.9,546.875,798.1,546.05,798.375C543.925,799.1,541.75,799.55,539.5,799.7C539,799.725,538.55,800,538,800C538,800,125.5,800,125.5,800C111.7,800,100.5,788.825,100.5,775C100.5,775,100.5,25,100.5,25C100.5,11.175,111.7,0,125.5,0C125.5,0,675.5,0,675.5,0C675.5,0,675.5,0,675.5,0M563,715.4C563,715.4,614.35,664.975,614.35,664.975C614.35,664.975,563,664.975,563,664.975C563,664.975,563,715.4,563,715.4C563,715.4,563,715.4,563,715.4M150.5,750C150.5,750,513,750,513,750C513,750,513,640,513,640C513,626.175,524.2,615,538,615C538,615,650.5,615,650.5,615C650.5,615,650.5,50,650.5,50C650.5,50,150.5,50,150.5,50C150.5,50,150.5,750,150.5,750C150.5,750,150.5,750,150.5,750" /><glyph unicode="&#x0059;" d="M650.492,0.512C652.917,0.512,655.342,0.862,657.742,1.587C668.292,4.787,675.492,14.512,675.492,25.512C675.492,25.512,675.492,775.5,675.492,775.5C675.492,789.325,664.317,800.5,650.492,800.5C650.492,800.5,150.5,800.5,150.5,800.5C136.675,800.5,125.5,789.325,125.5,775.5C125.5,775.5,125.5,25.512,125.5,25.512C125.5,14.512,132.7,4.787,143.25,1.587C153.775,-1.638,165.199,2.487,171.299,11.637C171.299,11.637,400.496,355.432,400.496,355.432C400.496,355.432,629.692,11.637,629.692,11.637C634.392,4.562,642.292,0.512,650.492,0.512C650.492,0.512,650.492,0.512,650.492,0.512M625.492,108.086C625.492,108.086,421.295,414.381,421.295,414.381C416.646,421.331,408.846,425.506,400.496,425.506C392.146,425.506,384.346,421.331,379.696,414.381C379.696,414.381,175.499,108.086,175.499,108.086C175.499,108.086,175.499,750.501,175.499,750.501C175.499,750.501,625.492,750.501,625.492,750.501C625.492,750.501,625.492,108.086,625.492,108.086C625.492,108.086,625.492,108.086,625.492,108.086" /><glyph unicode="&#x005A;" d="M87.9,9.05C91.675,6.95,95.825,5.925,100,5.925C104.625,5.925,109.225,7.2,113.275,9.75C113.275,9.75,675,362.175,675,362.175C675,362.175,675,25,675,25C675,11.175,686.2,0,700,0C713.8,0,725,11.175,725,25C725,25,725,775,725,775C725,788.8,713.8,800,700,800C686.2,800,675,788.8,675,775C675,775,675,437.825,675,437.825C675,437.825,113.275,790.225,113.275,790.225C105.55,795.075,95.825,795.35,87.9,790.925C79.95,786.525,75,778.15,75,769.05C75,769.05,75,30.925,75,30.925C75,21.8,79.95,13.425,87.9,9.05C87.9,9.05,87.9,9.05,87.9,9.05M125,723.825C125,723.825,641.2,399.975,641.2,399.975C641.2,399.975,125,76.1,125,76.1C125,76.1,125,723.825,125,723.825C125,723.825,125,723.825,125,723.825" /><glyph unicode="&#x0061;" d="M13.175,160.875C16.999,158.675,21.249,157.6,25.524,157.6C29.949,157.6,34.374,158.775,38.324,161.15C38.324,161.15,379.213,364.443,379.213,364.443C379.213,364.443,379.213,175.499,379.213,175.499C379.213,166.524,384.038,158.225,391.863,153.775C395.688,151.575,399.938,150.5,404.212,150.5C408.637,150.5,413.062,151.675,417.012,154.05C417.012,154.05,788.3,375.468,788.3,375.468C795.875,379.968,800.5,388.118,800.5,396.917C800.5,405.717,795.875,413.867,788.3,418.392C788.3,418.392,417.012,639.81,417.012,639.81C409.262,644.46,399.638,644.535,391.863,640.085C384.038,635.635,379.213,627.335,379.213,618.335C379.213,618.335,379.213,443.616,379.213,443.616C379.213,443.616,38.299,646.934,38.299,646.934C30.549,651.584,20.924,651.659,13.15,647.209C5.325,642.76,0.5,634.46,0.5,625.46C0.5,625.46,0.5,182.599,0.5,182.599C0.5,173.624,5.35,165.325,13.175,160.875C13.175,160.875,13.175,160.875,13.175,160.875M429.212,574.312C429.212,574.312,726.677,396.892,726.677,396.892C726.677,396.892,429.212,219.473,429.212,219.473C429.212,219.473,429.212,574.312,429.212,574.312C429.212,574.312,429.212,574.312,429.212,574.312M50.498,581.437C50.498,581.437,347.964,404.017,347.964,404.017C347.964,404.017,50.498,226.623,50.498,226.623C50.498,226.623,50.498,581.437,50.498,581.437C50.498,581.437,50.498,581.437,50.498,581.437" /><glyph unicode="&#x0062;" d="M775,576.75C775,576.75,560.575,576.75,560.575,576.75C587.125,604.65,602.95,639.45,602.95,671.15C602.95,694.1,595.075,713.95,580.175,728.475C565.425,742.875,545.4,750.5,522.275,750.5C488.4,750.5,450.8,733.525,421.725,705.15C413.475,697.075,406.275,688.3,400.025,679.15C393.775,688.3,386.575,697.075,378.3,705.15C349.225,733.55,311.625,750.5,277.75,750.5C254.6,750.5,234.575,742.875,219.875,728.5C204.95,713.95,197.075,694.1,197.075,671.15C197.075,639.45,212.9,604.65,239.45,576.75C239.45,576.75,25,576.75,25,576.75C11.175,576.75,0,565.575,0,551.75C0,551.75,0,377.575,0,377.575C0,363.75,11.175,352.575,25,352.575C25,352.575,64.8,352.575,64.8,352.575C64.8,352.575,64.8,75.5,64.8,75.5C64.8,61.675,75.975,50.5,89.8,50.5C89.8,50.5,710.175,50.5,710.175,50.5C724,50.5,735.175,61.675,735.175,75.5C735.175,75.5,735.175,352.575,735.175,352.575C735.175,352.575,775,352.575,775,352.575C788.825,352.575,800,363.75,800,377.575C800,377.575,800,551.75,800,551.75C800,565.575,788.825,576.75,775,576.75C775,576.75,775,576.75,775,576.75M295.35,402.575C295.35,402.575,295.35,526.75,295.35,526.75C295.35,526.75,504.6,526.75,504.6,526.75C504.6,526.75,504.6,402.575,504.6,402.575C504.6,402.575,295.35,402.575,295.35,402.575C295.35,402.575,295.35,402.575,295.35,402.575M504.625,352.575C504.625,352.575,504.625,100.5,504.625,100.5C504.625,100.5,295.375,100.5,295.375,100.5C295.375,100.5,295.375,352.575,295.375,352.575C295.375,352.575,504.625,352.575,504.625,352.575C504.625,352.575,504.625,352.575,504.625,352.575M522.275,700.5C529.1,700.5,538.65,699.15,545.25,692.7C550.375,687.7,552.975,680.45,552.975,671.15C552.975,651.175,540.85,626.95,521.325,607.9C501.65,588.675,476.475,576.75,455.675,576.75C448.85,576.75,439.3,578.1,432.725,584.525C427.6,589.525,425,596.8,425,606.125C425,626.075,437.1,650.325,456.625,669.35C476.3,688.575,501.45,700.5,522.275,700.5C522.275,700.5,522.275,700.5,522.275,700.5M254.75,692.75C261.325,699.175,270.875,700.525,277.7,700.525C298.525,700.525,323.675,688.575,343.35,669.375C362.85,650.325,374.975,626.125,375,606.175C375,596.825,372.4,589.55,367.275,584.575C360.675,578.125,351.125,576.775,344.3,576.775C323.5,576.775,298.325,588.725,278.65,607.925C259.15,627,247,651.2,247,671.175C247.025,680.475,249.6,687.725,254.75,692.75C254.75,692.75,254.75,692.75,254.75,692.75M50,526.75C50,526.75,245.35,526.75,245.35,526.75C245.35,526.75,245.35,402.575,245.35,402.575C245.35,402.575,89.775,402.575,89.775,402.575C89.775,402.575,50,402.575,50,402.575C50,402.575,50,526.75,50,526.75C50,526.75,50,526.75,50,526.75M114.8,352.575C114.8,352.575,245.375,352.575,245.375,352.575C245.375,352.575,245.375,100.5,245.375,100.5C245.375,100.5,114.8,100.5,114.8,100.5C114.8,100.5,114.8,352.575,114.8,352.575C114.8,352.575,114.8,352.575,114.8,352.575M685.175,100.5C685.175,100.5,554.6,100.5,554.6,100.5C554.6,100.5,554.6,352.575,554.6,352.575C554.6,352.575,685.175,352.575,685.175,352.575C685.175,352.575,685.175,100.5,685.175,100.5C685.175,100.5,685.175,100.5,685.175,100.5M750,402.575C750,402.575,710.175,402.575,710.175,402.575C710.175,402.575,554.6,402.575,554.6,402.575C554.6,402.575,554.6,526.75,554.6,526.75C554.6,526.75,749.975,526.75,749.975,526.75C749.975,526.75,749.975,402.575,749.975,402.575C749.975,402.575,750,402.575,750,402.575" /><glyph unicode="&#x0063;" d="M735.859,600.178C700.491,600.178,671.74,571.404,671.74,536.059C671.74,527.467,673.494,519.274,676.58,511.77C676.58,511.77,486.776,335.11,486.776,335.11C476.608,341.904,464.419,345.9,451.297,345.9C444.637,345.9,438.198,344.812,432.026,342.858C432.026,342.858,371.371,419.277,371.371,419.277C375.9,428.18,378.564,437.949,378.564,448.228C378.564,483.574,349.813,512.347,314.445,512.347C279.078,512.347,250.326,483.574,250.326,448.228C250.326,444.987,250.926,441.879,251.392,438.726C251.392,438.726,98.31,318.681,98.31,318.681C88.386,324.964,76.73,328.76,64.119,328.76C28.751,328.76,0,299.987,0,264.641C0,229.274,28.751,200.5,64.119,200.5C99.487,200.5,128.238,229.274,128.238,264.641C128.238,271.169,126.972,277.363,125.152,283.291C125.152,283.291,273.172,399.362,273.172,399.362C273.571,399.029,273.86,398.585,274.26,398.274C285.605,389.127,299.881,384.087,314.467,384.087C322.948,384.087,331.185,385.752,338.801,388.883C338.801,388.883,397.125,315.395,397.125,315.395C390.908,305.404,387.178,293.97,387.178,281.781C387.178,246.413,415.93,217.64,451.297,217.64C486.643,217.64,515.416,246.413,515.416,281.781C515.416,287.687,514.351,293.282,512.863,298.699C512.863,298.699,706.819,479.2,706.819,479.2C715.588,474.693,725.357,471.918,735.881,471.918C771.226,471.918,800,500.691,800,536.037C800,571.382,771.226,600.178,735.859,600.178C735.859,600.178,735.859,600.178,735.859,600.178M64.119,244.948C53.24,244.948,44.404,253.784,44.404,264.686C44.404,275.542,53.24,284.401,64.119,284.401C74.998,284.401,83.834,275.565,83.834,264.686C83.856,253.784,74.998,244.948,64.119,244.948C64.119,244.948,64.119,244.948,64.119,244.948M302.123,432.865C297.438,436.661,294.73,442.256,294.73,448.251C294.73,459.107,303.566,467.966,314.445,467.966C325.324,467.966,334.16,459.13,334.16,448.251C334.16,442.989,332.118,438.038,328.41,434.33C328.41,434.33,328.41,434.33,328.41,434.308C328.41,434.286,328.41,434.308,328.388,434.308C320.573,426.537,306.83,429.09,302.123,432.865C302.123,432.865,302.123,432.865,302.123,432.865M451.297,262.066C440.419,262.066,431.582,270.902,431.582,281.803C431.582,287.975,434.38,293.637,439.308,297.433C439.397,297.5,439.53,297.522,439.619,297.611C439.619,297.611,439.641,297.633,439.641,297.633C442.061,299.432,445.947,301.519,451.32,301.519C462.176,301.519,471.035,292.682,471.035,281.803C471.013,270.924,462.176,262.066,451.297,262.066C451.297,262.066,451.297,262.066,451.297,262.066M735.859,516.344C724.98,516.344,716.144,525.18,716.144,536.059C716.144,546.938,724.98,555.774,735.859,555.774C746.716,555.774,755.574,546.938,755.574,536.059C755.574,525.18,746.738,516.344,735.859,516.344C735.859,516.344,735.859,516.344,735.859,516.344" /><glyph unicode="&#x0064;" d="M25,427.15C25,427.15,347.85,427.15,347.85,427.15C361.675,427.15,372.85,438.325,372.85,452.15C372.85,452.15,372.85,775,372.85,775C372.85,788.825,361.675,800,347.85,800C347.85,800,25,800,25,800C11.175,800,0,788.825,0,775C0,775,0,452.15,0,452.15C0,438.35,11.2,427.15,25,427.15C25,427.15,25,427.15,25,427.15M50,750C50,750,322.85,750,322.85,750C322.85,750,322.85,477.15,322.85,477.15C322.85,477.15,50,477.15,50,477.15C50,477.15,50,750,50,750C50,750,50,750,50,750M452.15,427.15C452.15,427.15,775,427.15,775,427.15C788.825,427.15,800,438.325,800,452.15C800,452.15,800,775,800,775C800,788.825,788.825,800,775,800C775,800,452.15,800,452.15,800C438.325,800,427.15,788.825,427.15,775C427.15,775,427.15,452.15,427.15,452.15C427.15,438.35,438.35,427.15,452.15,427.15C452.15,427.15,452.15,427.15,452.15,427.15M477.15,750C477.15,750,750,750,750,750C750,750,750,477.15,750,477.15C750,477.15,477.15,477.15,477.15,477.15C477.15,477.15,477.15,750,477.15,750C477.15,750,477.15,750,477.15,750M25,0C25,0,347.85,0,347.85,0C361.675,0,372.85,11.175,372.85,25C372.85,25,372.85,347.875,372.85,347.875C372.85,361.7,361.675,372.875,347.85,372.875C347.85,372.875,25,372.875,25,372.875C11.175,372.875,0,361.7,0,347.875C0,347.875,0,25.025,0,25.025C0,11.2,11.2,0,25,0C25,0,25,0,25,0M50,322.875C50,322.875,322.85,322.875,322.85,322.875C322.85,322.875,322.85,50.025,322.85,50.025C322.85,50.025,50,50.025,50,50.025C50,50.025,50,322.875,50,322.875C50,322.875,50,322.875,50,322.875M427.15,25C427.15,11.175,438.325,0,452.15,0C452.15,0,775,0,775,0C788.825,0,800,11.175,800,25C800,25,800,347.875,800,347.875C800,361.7,788.825,372.875,775,372.875C775,372.875,452.15,372.875,452.15,372.875C438.325,372.875,427.15,361.7,427.15,347.875C427.15,347.875,427.15,25,427.15,25C427.15,25,427.15,25,427.15,25M477.15,322.875C477.15,322.875,750,322.875,750,322.875C750,322.875,750,50.025,750,50.025C750,50.025,477.15,50.025,477.15,50.025C477.15,50.025,477.15,322.875,477.15,322.875C477.15,322.875,477.15,322.875,477.15,322.875" /><glyph unicode="&#x0065;" d="M25,650C25,650,775,650,775,650C788.8,650,800,661.175,800,675C800,688.825,788.8,700,775,700C775,700,25,700,25,700C11.2,700,0,688.825,0,675C0,661.175,11.175,650,25,650C25,650,25,650,25,650M25,100C25,100,775,100,775,100C788.8,100,800,111.175,800,125C800,138.825,788.8,150,775,150C775,150,25,150,25,150C11.2,150,0,138.825,0,125C0,111.175,11.175,100,25,100C25,100,25,100,25,100M25,375C25,375,775,375,775,375C788.8,375,800,386.175,800,400C800,413.825,788.8,425,775,425C775,425,25,425,25,425C11.2,425,0,413.825,0,400C0,386.175,11.175,375,25,375C25,375,25,375,25,375" /><glyph unicode="&#x0066;" d="M709.5,421.95C709.5,421.95,666.75,421.95,666.75,421.95C649.975,564.175,536.225,675.025,400,675.025C263.95,675.025,149.975,564.075,133.2,421.95C133.2,421.95,90.475,421.95,90.475,421.95C40.6,421.95,0,378.9,0,326C0,326,0,220.975,0,220.975C0,168.075,40.6,125.025,90.475,125.025C90.475,125.025,155.975,125.025,155.975,125.025C162.625,125.025,168.975,127.65,173.65,132.35C178.325,137.05,180.975,143.4,180.975,150.025C180.975,150.025,180.95,220.975,180.95,220.975C180.95,220.975,180.95,263.825,180.95,263.825C180.95,263.85,180.975,263.875,180.975,263.925C180.975,265.375,180.975,386.225,181,389.7C182.95,519.45,281.2,625.025,400,625.025C519.275,625.025,617.525,519,619,388.7C619.025,386.225,619.025,328.675,619.025,292.6C619.025,276.2,619.025,264.25,619.025,263.9C619.025,263.9,619.025,150,619.025,150C619.025,136.175,630.2,125,644.025,125C644.025,125,709.5,125,709.5,125C759.4,125,800,168.05,800,220.95C800,220.95,800,325.975,800,325.975C800.025,378.9,759.425,421.95,709.5,421.95C709.5,421.95,709.5,421.95,709.5,421.95M90.5,175.025C68.175,175.025,50.025,195.625,50.025,220.975C50.025,220.975,50.025,326,50.025,326C50.025,351.35,68.2,371.95,90.5,371.95C90.5,371.95,131,371.95,131,371.95C131,371.95,130.975,326,130.975,326C130.975,326,131,175.025,131,175.025C131,175.025,90.5,175.025,90.5,175.025C90.5,175.025,90.5,175.025,90.5,175.025M750.025,220.975C750.025,195.625,731.85,175.025,709.525,175.025C709.525,175.025,669.025,175.025,669.025,175.025C669.025,175.025,669.025,263.925,669.025,263.925C669.025,264.275,669.025,276.55,669.025,293.3C669.025,293.3,669.025,371.95,669.025,371.95C669.025,371.95,709.5,371.95,709.5,371.95C731.85,371.95,750,351.35,750,326C750,326,750,220.975,750,220.975C750,220.975,750.025,220.975,750.025,220.975" /><glyph unicode="&#x0067;" d="M381.675,33.325C386.4,28.025,393.2,25,400.3,25C400.3,25,400.325,25,400.325,25C407.425,25,414.225,28.05,418.95,33.35C418.95,33.35,748.55,402.625,748.55,402.625C781.725,443.125,800,494,800,545.925C800,672.25,695.175,775,566.3,775C502.85,775,443.7,750.5,400,706.875C356.3,750.475,297.15,775,233.7,775C104.85,775,0,672.25,0,545.925C0,493.975,18.275,443.05,52.35,401.5C55.55,397.6,305.25,118.7,381.675,33.325C381.675,33.325,381.675,33.325,381.675,33.325M233.675,725C291.7,725,345.125,699.05,380.225,653.85C389.7,641.65,410.25,641.65,419.725,653.85C454.825,699.075,508.25,725,566.275,725C667.575,725,749.975,644.675,749.975,545.925C749.975,504.925,736.1,466.325,710.55,435.1C710.55,435.1,400.3,87.5,400.3,87.5C285.9,215.275,96.175,427.25,90.175,434.225C63.9,466.3,50.025,504.925,50.025,545.925C50,644.65,132.4,725,233.675,725C233.675,725,233.675,725,233.675,725" /><glyph unicode="&#x0068;" d="M347.78,443.761C291.153,463.846,226.773,449.614,183.177,406.694C179.85,403.367,163.643,387.159,151.662,375.179C151.637,375.154,151.637,375.154,151.612,375.154C46.587,270.129,45.411,268.928,45.411,268.928C-14.918,207.324,-14.417,107.551,46.612,46.547C77.276,15.882,117.646,0.5,158.14,0.5C198.484,0.5,238.978,15.757,270.143,46.422C352.407,128.686,370.366,146.645,374.593,150.897C374.593,150.897,407.884,184.188,407.884,184.188C450.454,227.683,464.236,290.363,443.851,347.766C439.199,360.797,424.867,367.575,411.936,362.973C398.905,358.346,392.101,344.039,396.729,331.058C410.66,291.789,401.256,248.918,372.317,219.354C372.317,219.354,325.77,172.807,325.77,172.807C325.77,172.807,325.77,172.782,325.745,172.782C298.732,145.769,241.38,88.442,234.276,81.314C192.106,39.844,123.824,40.119,82.004,81.914C40.309,123.609,39.934,191.816,81.128,233.861C83.554,236.312,187.004,339.762,187.004,339.762C187.029,339.787,187.029,339.787,187.029,339.812C199.385,352.168,215.417,368.175,219.019,371.777C248.783,401.091,291.729,410.57,331.072,396.614C344.003,392.037,358.36,398.815,362.988,411.821C367.615,424.877,360.811,439.159,347.78,443.761C347.78,443.761,347.78,443.761,347.78,443.761M505.681,348.041C546.675,348.041,587.169,363.923,617.209,393.487C617.209,393.487,649.374,425.653,649.374,425.653C649.374,425.653,663.481,439.759,663.481,439.759C663.481,439.759,755.6,531.878,755.6,531.878C815.903,593.533,815.378,693.28,754.374,754.284C693.145,815.438,593.247,815.839,532.393,755.86C531.793,755.31,531.693,755.21,425.767,649.284C425.767,649.284,425.767,649.259,425.742,649.259C425.742,649.259,393.127,616.619,393.127,616.619C350.532,573.123,336.75,510.443,357.16,453.041C360.811,442.811,370.441,436.408,380.721,436.408C383.497,436.408,386.349,436.883,389.1,437.858C402.131,442.511,408.909,456.793,404.282,469.799C390.326,509.042,399.755,551.888,428.694,581.452C428.694,581.452,475.241,628.024,475.241,628.024C503.53,656.288,564.884,717.642,566.76,719.493C608.88,760.988,677.162,760.662,718.982,718.917C760.677,677.223,761.052,609.015,720.008,567.07C720.008,567.07,628.089,475.151,628.089,475.151C628.089,475.151,613.982,461.045,613.982,461.045C613.982,461.045,581.967,429.029,581.967,429.029C552.628,400.216,508.707,390.511,469.939,404.192C456.957,408.82,442.625,402.016,438.023,388.985C433.396,375.954,440.224,361.672,453.231,357.07C470.289,350.967,488.022,348.041,505.681,348.041C505.681,348.041,505.681,348.041,505.681,348.041M253.435,253.346C258.313,248.468,264.716,246.017,271.119,246.017C277.522,246.017,283.925,248.468,288.802,253.346C288.802,253.346,547.576,512.119,547.576,512.119C557.355,521.899,557.355,537.706,547.576,547.486C537.796,557.265,521.988,557.265,512.209,547.486C512.209,547.486,253.435,288.712,253.435,288.712C243.656,278.958,243.656,263.125,253.435,253.346C253.435,253.346,253.435,253.346,253.435,253.346" /><glyph unicode="&#x0069;" d="M789.704,447.972C789.704,447.972,414.707,720.695,414.707,720.695C405.932,727.095,394.057,727.095,385.282,720.695C385.282,720.695,10.285,447.972,10.285,447.972C-0.865,439.872,-3.34,424.222,4.785,413.072C12.91,401.897,28.51,399.472,39.71,407.547C39.71,407.547,89.06,443.447,89.06,443.447C89.06,443.447,89.06,100.5,89.06,100.5C89.06,86.675,100.26,75.5,114.059,75.5C114.059,75.5,315.933,75.5,315.933,75.5C329.733,75.5,340.933,86.675,340.933,100.5C340.933,100.5,340.933,335.323,340.933,335.323C340.933,335.323,459.057,335.323,459.057,335.323C459.057,335.323,459.057,100.5,459.057,100.5C459.057,86.675,470.257,75.5,484.056,75.5C484.056,75.5,685.93,75.5,685.93,75.5C699.73,75.5,710.93,86.675,710.93,100.5C710.93,100.5,710.93,443.422,710.93,443.422C710.93,443.422,760.279,407.522,760.279,407.522C764.729,404.297,769.879,402.747,774.954,402.747C782.679,402.747,790.304,406.322,795.204,413.047C803.354,424.197,800.854,439.847,789.704,447.972C789.704,447.972,789.704,447.972,789.704,447.972M660.93,125.475C660.93,125.475,509.056,125.475,509.056,125.475C509.056,125.475,509.056,360.298,509.056,360.298C509.056,374.123,497.856,385.297,484.056,385.297C484.056,385.297,315.933,385.297,315.933,385.297C302.133,385.297,290.933,374.123,290.933,360.298C290.933,360.298,290.933,125.475,290.933,125.475C290.933,125.475,139.059,125.475,139.059,125.475C139.059,125.475,139.059,479.797,139.059,479.797C139.059,479.797,400.007,669.57,400.007,669.57C400.007,669.57,660.955,479.797,660.955,479.797C660.955,479.797,660.955,125.475,660.955,125.475C660.955,125.475,660.93,125.475,660.93,125.475" /><glyph unicode="&#x006A;" d="M24.89,76.5C24.89,76.5,24.89,76.5,24.89,76.5C24.89,76.5,522.299,76.5,522.299,76.5C522.299,76.5,775.11,76.5,775.11,76.5C788.849,76.5,800,87.626,800,101.39C800,115.155,788.849,126.281,775.11,126.281C775.11,126.281,522.299,126.281,522.299,126.281C522.299,126.281,24.915,126.281,24.915,126.281C24.915,126.281,24.915,126.281,24.915,126.281C11.176,126.281,0.025,115.155,0.025,101.39C0.025,87.626,11.151,76.5,24.89,76.5C24.89,76.5,24.89,76.5,24.89,76.5M24.89,275.623C24.89,275.623,771.6,275.623,771.6,275.623C785.34,275.623,796.49,286.749,796.49,300.513C796.49,314.277,785.34,325.403,771.6,325.403C771.6,325.403,24.89,325.403,24.89,325.403C11.151,325.403,0,314.277,0,300.513C0,286.749,11.151,275.623,24.89,275.623C24.89,275.623,24.89,275.623,24.89,275.623M771.6,723.649C771.6,723.649,24.89,723.649,24.89,723.649C11.151,723.649,0,712.523,0,698.758C0,684.994,11.151,673.868,24.89,673.868C24.89,673.868,771.6,673.868,771.6,673.868C785.34,673.868,796.49,684.994,796.49,698.758C796.49,712.523,785.34,723.649,771.6,723.649C771.6,723.649,771.6,723.649,771.6,723.649M775.11,524.526C775.11,524.526,522.299,524.526,522.299,524.526C522.299,524.526,24.915,524.526,24.915,524.526C24.915,524.526,24.915,524.526,24.915,524.526C11.176,524.526,0.025,513.4,0.025,499.636C0.025,485.871,11.176,474.745,24.915,474.745C24.915,474.745,24.915,474.745,24.915,474.745C24.915,474.745,522.299,474.745,522.299,474.745C522.299,474.745,775.11,474.745,775.11,474.745C788.849,474.745,800,485.871,800,499.636C800,513.4,788.849,524.526,775.11,524.526C775.11,524.526,775.11,524.526,775.11,524.526" /><glyph unicode="&#x006B;" d="M134.4,269.7C199.75,269.7,254.275,318.7,266.275,383.35C266.275,383.35,628.325,383.35,628.325,383.35C628.325,383.35,628.325,315.3,628.325,315.3C628.325,301.475,639.525,290.3,653.325,290.3C667.125,290.3,678.325,301.475,678.325,315.3C678.325,315.3,678.325,383.35,678.325,383.35C678.325,383.35,750,383.35,750,383.35C750,383.35,750,275.5,750,275.5C750,261.675,761.2,250.5,775,250.5C788.8,250.5,800,261.675,800,275.5C800,275.5,800,408.35,800,408.35C800,422.175,788.8,433.35,775,433.35C775,433.35,266.8,433.35,266.8,433.35C256.15,499.725,200.925,550.5,134.4,550.5C60.3,550.5,0,487.525,0,410.125C0,332.725,60.3,269.7,134.4,269.7C134.4,269.7,134.4,269.7,134.4,269.7M134.4,500.475C180.925,500.475,218.8,459.925,218.8,410.1C218.8,360.25,180.925,319.7,134.4,319.7C87.875,319.7,50,360.25,50,410.1C50,459.925,87.875,500.475,134.4,500.475C134.4,500.475,134.4,500.475,134.4,500.475" /><glyph unicode="&#x006C;" d="M368.25,792.65C363.55,797.35,357.225,799.975,350.575,799.975C350.575,799.975,26.65,800,26.65,800C12.875,800,1.7,788.875,1.65,775.1C1.65,775.1,0.5,449.975,0.5,449.975C0.475,443.3,3.1,436.925,7.825,432.2C7.825,432.2,432.7,7.325,432.7,7.325C437.4,2.625,443.725,0,450.375,0C457.025,0,463.375,2.625,468.05,7.325C468.05,7.325,793.15,332.425,793.15,332.425C802.925,342.2,802.925,358,793.15,367.775C793.15,367.775,368.25,792.65,368.25,792.65C368.25,792.65,368.25,792.65,368.25,792.65M450.375,60.35C450.375,60.35,50.55,460.2,50.55,460.2C50.55,460.2,51.575,750,51.575,750C51.575,750,340.25,749.975,340.25,749.975C340.25,749.975,740.125,350.1,740.125,350.1C740.125,350.1,450.375,60.35,450.375,60.35C450.375,60.35,450.375,60.35,450.375,60.35M189.65,545.575C189.65,495.35,244.025,463.95,287.525,489.075C307.725,500.725,320.15,522.275,320.15,545.575C320.15,595.8,265.775,627.2,222.275,602.075C202.075,590.425,189.65,568.875,189.65,545.575" /><glyph unicode="&#x006D;" d="M384.358,169.171C376.127,180.229,360.515,182.631,349.382,174.425C330.169,160.24,319.161,139.075,319.161,116.383C319.161,102.298,323.439,88.588,332.045,76.104C332.045,76.104,380.054,10.707,380.054,10.707C384.758,4.278,392.263,0.5,400.219,0.5C400.219,0.5,400.219,0.5,400.219,0.5C408.175,0.5,415.68,4.303,420.383,10.732C420.383,10.732,468.818,76.855,468.818,76.855C476.899,88.713,481.177,102.398,481.177,116.408C481.177,139.725,469.694,161.216,449.629,175.376C438.321,183.356,422.735,180.654,414.754,169.396C406.774,158.113,409.451,142.502,420.734,134.521C427.338,129.843,431.116,123.263,431.116,116.383C431.116,112.405,429.89,108.553,427.964,105.701C427.964,105.701,400.194,67.773,400.194,67.773C400.194,67.773,372.849,105.025,372.849,105.025C370.422,108.553,369.197,112.355,369.197,116.358C369.197,123.013,372.824,129.493,379.104,134.146C390.212,142.402,392.563,158.063,384.358,169.171C384.358,169.171,384.358,169.171,384.358,169.171M558.733,166.444C563.411,162.341,569.315,160.19,575.295,160.19C578.772,160.19,582.275,160.915,585.577,162.416C594.534,166.444,600.288,175.351,600.288,185.208C600.288,185.208,600.288,345.373,600.288,345.373C600.288,352.553,597.21,359.383,591.832,364.136C591.832,364.136,501.942,443.468,501.942,443.468C501.942,443.468,501.942,673.934,501.942,673.934C501.942,679.363,500.191,684.642,496.913,688.97C496.913,688.97,420.158,791.043,420.158,791.043C410.701,803.652,389.611,803.652,380.154,791.043C380.154,791.043,303.374,688.945,303.374,688.945C300.122,684.617,298.346,679.338,298.346,673.909C298.346,673.909,298.346,443.443,298.346,443.443C298.346,443.443,208.456,364.111,208.456,364.111C203.077,359.358,200,352.528,200,345.348C200,345.348,200,185.183,200,185.183C200,175.326,205.754,166.419,214.736,162.391C218.038,160.89,221.54,160.165,225.018,160.165C230.997,160.165,236.902,162.316,241.58,166.419C241.58,166.419,308.103,225.111,308.103,225.111C312.356,221.734,317.509,219.407,323.389,219.407C323.389,219.407,476.949,219.407,476.949,219.407C482.803,219.407,487.957,221.734,492.235,225.111C492.235,225.111,558.733,166.444,558.733,166.444C558.733,166.444,558.733,166.444,558.733,166.444M550.252,240.623C550.252,240.623,501.942,283.253,501.942,283.253C501.942,283.253,501.942,376.695,501.942,376.695C501.942,376.695,550.252,334.065,550.252,334.065C550.252,334.065,550.252,240.623,550.252,240.623C550.252,240.623,550.252,240.623,550.252,240.623M400.144,734.402C400.144,734.402,451.906,665.578,451.906,665.578C451.906,665.578,451.906,454.476,451.906,454.476C451.906,454.476,348.382,454.476,348.382,454.476C348.382,454.476,348.382,665.578,348.382,665.578C348.382,665.578,400.144,734.402,400.144,734.402C400.144,734.402,400.144,734.402,400.144,734.402M250.036,334.09C250.036,334.09,298.346,376.72,298.346,376.72C298.346,376.72,298.346,283.278,298.346,283.278C298.346,283.278,250.036,240.648,250.036,240.648C250.036,240.648,250.036,334.09,250.036,334.09C250.036,334.09,250.036,334.09,250.036,334.09M348.407,269.468C348.407,269.468,348.407,404.44,348.407,404.44C348.407,404.44,451.931,404.44,451.931,404.44C451.931,404.44,451.931,269.468,451.931,269.468C451.931,269.468,348.407,269.468,348.407,269.468C348.407,269.468,348.407,269.468,348.407,269.468" /><glyph unicode="&#x006E;" d="M125.475,0C125.475,0,675.475,0,675.475,0C689.275,0,700.475,11.2,700.475,25C700.475,25,700.475,452.75,700.475,452.75C700.475,466.55,689.275,477.75,675.475,477.75C675.475,477.75,663.625,477.75,663.625,477.75C663.625,503.5,663.625,539.95,663.625,540.45C662.075,683.575,544.05,800,400.5,800C256.525,800,138.5,683.225,137.35,539.5C137.35,539.5,137.35,477.75,137.35,477.75C137.35,477.75,125.5,477.75,125.5,477.75C111.7,477.75,100.5,466.55,100.5,452.75C100.5,452.75,100.5,25,100.5,25C100.475,11.2,111.65,0,125.475,0C125.475,0,125.475,0,125.475,0M650.475,50C650.475,50,150.475,50,150.475,50C150.475,50,150.475,427.75,150.475,427.75C150.475,427.75,650.475,427.75,650.475,427.75C650.475,427.75,650.475,50,650.475,50C650.475,50,650.475,50,650.475,50M187.325,539.3C188.25,655.475,283.85,750,400.475,750C516.75,750,612.375,655.75,613.6,540.025C613.6,538.4,613.6,502.975,613.6,477.75C613.6,477.75,187.3,477.75,187.3,477.75C187.3,477.75,187.325,539.3,187.325,539.3C187.325,539.3,187.325,539.3,187.325,539.3M345.925,133.875C345.925,120.075,357.125,108.875,370.925,108.875C370.925,108.875,429.975,108.875,429.975,108.875C443.775,108.875,454.975,120.075,454.975,133.875C454.975,133.875,454.975,214.65,454.975,214.65C475.35,230.975,487.5,255.625,487.5,282.025C487.5,329.925,448.45,368.9,400.45,368.9C352.45,368.9,313.4,329.925,313.4,282.025C313.4,255.625,325.55,230.975,345.925,214.65C345.925,214.65,345.925,133.875,345.925,133.875C345.925,133.875,345.925,133.875,345.925,133.875M400.475,318.875C420.9,318.875,437.525,302.325,437.525,282C437.525,268.725,430.075,256.4,418.05,249.875C410,245.5,405,237.075,405,227.925C405,227.925,405,158.875,405,158.875C405,158.875,395.95,158.875,395.95,158.875C395.95,158.875,395.95,227.925,395.95,227.925C395.95,237.075,390.95,245.525,382.9,249.875C370.9,256.4,363.425,268.725,363.425,282C363.4,302.35,380.025,318.875,400.475,318.875C400.475,318.875,400.475,318.875,400.475,318.875" /><glyph unicode="&#x006F;" d="M345.533,133.759C345.533,119.953,356.738,108.748,370.544,108.748C370.544,108.748,429.62,108.748,429.62,108.748C443.426,108.748,454.631,119.953,454.631,133.759C454.631,133.759,454.631,214.569,454.631,214.569C475.015,230.902,487.171,255.563,487.171,281.974C487.171,329.895,448.103,368.887,400.082,368.887C352.061,368.887,312.994,329.895,312.994,281.974C312.994,255.563,325.149,230.902,345.533,214.569C345.533,214.569,345.533,133.759,345.533,133.759C345.533,133.759,345.533,133.759,345.533,133.759M400.107,318.84C420.541,318.84,437.174,302.283,437.174,281.949C437.174,268.668,429.72,256.338,417.69,249.81C409.636,245.433,404.634,237.004,404.634,227.85C404.634,227.85,404.634,158.77,404.634,158.77C404.634,158.77,395.58,158.77,395.58,158.77C395.58,158.77,395.58,227.85,395.58,227.85C395.58,237.004,390.578,245.458,382.524,249.81C370.519,256.338,363.041,268.668,363.041,281.949C363.016,302.308,379.648,318.84,400.107,318.84C400.107,318.84,400.107,318.84,400.107,318.84M124.986,0C124.986,0,675.228,0,675.228,0C689.034,0,700.239,11.205,700.239,25.011C700.239,25.011,700.239,448.798,700.239,448.798C700.239,462.604,689.034,473.809,675.228,473.809C675.228,473.809,177.134,473.809,177.134,473.809C151.748,548.992,170.756,632.078,228.056,688.653C310.393,769.914,445.027,770.614,528.139,690.329C529.939,688.578,590.091,629.202,590.091,629.202C590.091,629.202,625.231,664.818,625.231,664.818C625.231,664.818,563.554,725.695,562.979,726.245C460.409,825.363,294.411,824.463,192.941,724.244C125.961,658.115,100.75,562.623,124.536,473.734C110.955,473.484,100,462.454,100,448.823C100,448.823,100,25.036,100,25.036C99.975,11.205,111.155,0,124.986,0C124.986,0,124.986,0,124.986,0M650.217,50.022C650.217,50.022,149.997,50.022,149.997,50.022C149.997,50.022,149.997,423.787,149.997,423.787C149.997,423.787,650.217,423.787,650.217,423.787C650.217,423.787,650.217,50.022,650.217,50.022C650.217,50.022,650.217,50.022,650.217,50.022" /><glyph unicode="&#x0070;" d="M792.71,360.4C802.485,370.175,802.485,385.975,792.71,395.75C792.71,395.75,675.585,512.9,675.585,512.9C670.885,517.6,664.535,520.225,657.91,520.225C651.285,520.225,644.91,517.6,640.235,512.9C640.235,512.9,390.76,263.425,390.76,263.425C370.785,244.05,345.185,233.375,318.685,233.375C295.26,233.375,273.66,242.075,257.885,257.85C223.21,292.525,225.86,352.25,263.66,390.925C265.56,392.825,348.76,476.05,418.66,545.95C418.66,545.95,418.66,545.95,418.66,545.95C418.66,545.95,418.66,545.95,418.66,545.95C466.21,593.5,507.66,634.95,512.885,640.175C522.66,649.95,522.66,665.75,512.885,675.525C512.885,675.525,395.76,792.675,395.76,792.675C391.06,797.375,384.71,800,378.06,800C378.06,800,378.06,800,378.035,800C371.385,799.975,365.01,797.325,360.335,792.625C359.285,791.55,316.66,748.925,266.16,698.425C266.16,698.425,266.16,698.425,266.16,698.425C266.16,698.425,266.16,698.425,266.16,698.425C265.21,697.475,264.285,696.55,263.335,695.6C188.985,621.25,99.085,531.35,98.61,530.85C-26.665,402.7,-32.79,202.65,84.96,84.9C139.71,30.15,214.01,0,294.16,0C381.26,0,464.985,34.675,529.785,97.525C531.31,98.975,790.085,357.775,792.71,360.4C792.71,360.4,792.71,360.4,792.71,360.4M378.11,739.625C378.11,739.625,459.885,657.85,459.885,657.85C438.06,636.025,418.91,616.875,400.985,598.975C400.985,598.975,319.21,680.75,319.21,680.75C343.135,704.65,364.185,725.7,378.11,739.625C378.11,739.625,378.11,739.625,378.11,739.625M495.06,133.5C439.535,79.65,368.185,49.975,294.16,49.975C227.36,49.975,165.61,74.925,120.31,120.25C21.86,218.7,28.16,387.225,134.31,495.775C136.11,497.575,213.71,575.175,283.885,645.375C283.885,645.375,365.66,563.6,365.66,563.6C228.785,426.725,228.06,425.975,228.035,425.95C171.06,367.7,168.61,276.425,222.535,222.45C247.76,197.225,281.91,183.35,318.685,183.35C358.235,183.35,396.21,199.025,425.835,227.775C425.835,227.775,563.46,365.4,563.46,365.4C563.46,365.4,645.235,283.625,645.235,283.625C574.96,213.375,497.285,135.7,495.06,133.5C495.06,133.5,495.06,133.5,495.06,133.5M680.585,318.975C680.585,318.975,598.81,400.75,598.81,400.75C598.81,400.75,657.91,459.85,657.91,459.85C657.91,459.85,739.685,378.075,739.685,378.075C725.735,364.125,704.585,343,680.585,318.975C680.585,318.975,680.585,318.975,680.585,318.975" /><glyph unicode="&#x0071;" d="M300.034,199.331C372.112,199.331,440.189,224.882,494.365,271.358C494.365,271.358,757.724,7.35,757.724,7.35C762.599,2.45,769.024,0,775.424,0C781.799,0,788.2,2.45,793.075,7.3C802.85,17.051,802.875,32.876,793.125,42.651C793.125,42.651,529.542,306.86,529.542,306.86C628.22,424.713,622.444,601.194,511.916,711.997C455.314,768.749,380.062,800,300.009,800C219.957,800,144.705,768.749,88.103,711.997C-28.701,594.894,-28.701,404.388,88.103,287.309C144.73,230.582,219.982,199.331,300.034,199.331C300.034,199.331,300.034,199.331,300.034,199.331M123.529,676.696C170.68,723.973,233.357,749.998,300.034,749.998C366.711,749.998,429.388,723.973,476.54,676.696C573.918,579.068,573.918,420.238,476.54,322.61C429.388,275.334,366.711,249.308,300.034,249.308C233.357,249.308,170.68,275.334,123.529,322.61C26.151,420.263,26.151,579.068,123.529,676.696C123.529,676.696,123.529,676.696,123.529,676.696M182.331,474.24C182.331,474.24,426.713,474.24,426.713,474.24C440.514,474.24,451.714,485.415,451.714,499.241C451.714,513.066,440.514,524.241,426.713,524.241C426.713,524.241,182.331,524.241,182.331,524.241C168.53,524.241,157.33,513.066,157.33,499.241C157.33,485.415,168.505,474.24,182.331,474.24C182.331,474.24,182.331,474.24,182.331,474.24" /><glyph unicode="&#x0072;" d="M300.016,199.331C372.093,199.331,440.17,224.882,494.347,271.358C494.347,271.358,757.705,7.35,757.705,7.35C762.58,2.45,769.005,0,775.405,0C781.781,0,788.181,2.45,793.056,7.3C802.831,17.051,802.856,32.876,793.106,42.651C793.106,42.651,529.523,306.86,529.523,306.86C628.201,424.713,622.451,601.194,511.897,711.997C455.295,768.749,380.043,800,299.991,800C219.938,800,144.686,768.749,88.084,711.997C-28.695,594.894,-28.695,404.388,88.084,287.309C144.711,230.582,219.963,199.331,300.016,199.331C300.016,199.331,300.016,199.331,300.016,199.331M123.535,676.696C170.687,723.973,233.364,749.998,300.041,749.998C366.718,749.998,429.395,723.973,476.546,676.696C573.924,579.068,573.924,420.238,476.546,322.61C429.395,275.334,366.718,249.308,300.041,249.308C233.364,249.308,170.687,275.334,123.535,322.61C26.157,420.263,26.157,579.068,123.535,676.696C123.535,676.696,123.535,676.696,123.535,676.696M188.037,475.24C188.037,475.24,281.865,475.24,281.865,475.24C281.865,475.24,281.865,381.412,281.865,381.412C281.865,367.586,293.065,356.411,306.866,356.411C320.666,356.411,331.867,367.586,331.867,381.412C331.867,381.412,331.867,475.24,331.867,475.24C331.867,475.24,425.67,475.24,425.67,475.24C439.47,475.24,450.67,486.415,450.67,500.241C450.67,514.066,439.47,525.241,425.67,525.241C425.67,525.241,331.867,525.241,331.867,525.241C331.867,525.241,331.867,619.069,331.867,619.069C331.867,632.895,320.666,644.07,306.866,644.07C293.065,644.07,281.865,632.895,281.865,619.069C281.865,619.069,281.865,525.241,281.865,525.241C281.865,525.241,188.037,525.241,188.037,525.241C174.237,525.241,163.036,514.066,163.036,500.241C163.036,486.415,174.212,475.24,188.037,475.24C188.037,475.24,188.037,475.24,188.037,475.24" /><glyph unicode="&#x0073;" d="M291.259,217.857C360.211,217.857,425.438,241.758,477.715,285.459C477.715,285.459,504.641,258.533,504.641,258.533C504.641,258.533,495.69,249.583,495.69,249.583C490.99,244.883,488.365,238.532,488.365,231.907C488.365,225.282,490.99,218.907,495.69,214.232C495.69,214.232,702.122,7.825,702.122,7.825C706.997,2.95,713.397,0.5,719.797,0.5C726.198,0.5,732.598,2.95,737.473,7.825C737.473,7.825,792.675,63.027,792.675,63.027C797.375,67.727,800,74.077,800,80.703C800,87.328,797.375,93.703,792.675,98.378C792.675,98.378,586.243,304.785,586.243,304.785C576.468,314.56,560.668,314.56,550.892,304.785C550.892,304.785,539.992,293.884,539.992,293.884C539.992,293.884,513.166,320.71,513.166,320.71C557.992,373.312,582.593,439.289,582.593,509.141C582.593,586.943,552.292,660.096,497.266,715.122C442.239,770.149,369.087,800.45,291.284,800.45C213.482,800.45,140.329,770.149,85.328,715.122C30.301,660.096,0,586.968,0,509.141C0,431.338,30.301,358.186,85.328,303.184C140.304,248.133,213.457,217.857,291.259,217.857C291.259,217.857,291.259,217.857,291.259,217.857M739.623,80.678C739.623,80.678,719.772,60.852,719.772,60.852C719.772,60.852,548.692,231.907,548.692,231.907C548.692,231.907,568.543,251.733,568.543,251.733C568.543,251.733,739.623,80.678,739.623,80.678C739.623,80.678,739.623,80.678,739.623,80.678M120.654,679.746C166.23,725.323,226.807,750.423,291.259,750.423C355.711,750.423,416.313,725.323,461.889,679.746C507.466,634.17,532.567,573.568,532.567,509.116C532.567,444.664,507.466,384.087,461.889,338.511C416.313,292.934,355.711,267.833,291.259,267.833C226.807,267.833,166.23,292.934,120.654,338.511C75.077,384.087,49.977,444.689,49.977,509.116C49.977,573.593,75.052,634.17,120.654,679.746C120.654,679.746,120.654,679.746,120.654,679.746" /><glyph unicode="&#x0074;" d="M300.006,199.35C372.081,199.35,440.156,224.9,494.331,271.375C494.331,271.375,757.681,7.35,757.681,7.35C762.556,2.45,768.981,0,775.381,0C781.756,0,788.156,2.425,793.031,7.3C802.806,17.05,802.831,32.875,793.081,42.65C793.081,42.65,529.506,306.875,529.506,306.875C628.181,424.725,622.431,601.2,511.881,712C455.281,768.75,380.031,800,299.981,800C219.931,800,144.681,768.75,88.081,712C-28.694,594.925,-28.694,404.4,88.081,287.325C144.706,230.6,219.956,199.35,300.006,199.35C300.006,199.35,300.006,199.35,300.006,199.35M123.506,676.7C170.656,723.975,233.331,750,300.006,750C366.681,750,429.356,723.975,476.506,676.7C573.881,579.075,573.881,420.25,476.506,322.625C429.356,275.35,366.681,249.325,300.006,249.325C233.331,249.325,170.656,275.35,123.506,322.625C26.156,420.25,26.156,579.075,123.506,676.7C123.506,676.7,123.506,676.7,123.506,676.7" /><glyph unicode="&#x0075;" d="M800,175.476C800,175.476,800,625.49,800,625.49C800,638.315,790.25,648.466,777.824,649.916C777.599,649.966,777.399,650.016,777.199,650.041C776.449,650.116,775.774,650.491,774.999,650.491C774.999,650.491,24.976,650.491,24.976,650.491C24.176,650.491,23.476,650.116,22.701,650.041C21.076,649.891,19.551,649.566,17.976,649.091C16.351,648.616,14.85,648.066,13.4,647.291C12.075,646.591,10.9,645.741,9.725,644.815C8.325,643.715,7.1,642.565,5.95,641.19C5.475,640.615,4.825,640.315,4.4,639.69C3.925,639.015,3.85,638.19,3.45,637.49C2.6,635.99,1.975,634.49,1.45,632.815C0.95,631.19,0.625,629.59,0.475,627.915C0.4,627.09,0,626.365,0,625.515C0,625.515,0,175.501,0,175.501C0,161.675,11.175,150.5,25.001,150.5C25.001,150.5,775.024,150.5,775.024,150.5C788.825,150.475,800,161.675,800,175.476C800,175.476,800,175.476,800,175.476M692.597,600.489C692.597,600.489,398.962,398.183,398.962,398.183C398.962,398.183,105.328,600.489,105.328,600.489C105.328,600.489,692.597,600.489,692.597,600.489C692.597,600.489,692.597,600.489,692.597,600.489M49.977,200.477C49.977,200.477,49.977,577.913,49.977,577.913C49.977,577.913,384.787,347.231,384.787,347.231C389.062,344.281,394.012,342.806,398.962,342.806C403.913,342.806,408.863,344.281,413.138,347.231C413.138,347.231,749.998,579.313,749.998,579.313C749.998,579.313,749.998,200.477,749.998,200.477C749.998,200.477,49.977,200.477,49.977,200.477C49.977,200.477,49.977,200.477,49.977,200.477" /><glyph unicode="&#x0076;" d="M379.534,11.025C384.184,4.125,391.959,0,400.259,0C400.259,0,400.259,0,400.259,0C408.585,0,416.36,4.15,420.985,11.025C420.985,11.025,656.892,361.486,656.892,361.486C685.093,406.463,700.019,458.114,700.019,510.891C700.019,670.296,565.44,800,400.009,800C234.579,800,100,670.296,100,510.891C100,458.039,114.975,406.288,143.726,360.586C143.726,360.586,379.534,11.025,379.534,11.025C379.534,11.025,379.534,11.025,379.534,11.025M400.034,750.023C537.889,750.023,650.042,642.745,650.042,510.916C650.042,467.565,637.767,425.088,614.991,388.762C614.991,388.762,400.234,69.752,400.234,69.752C400.234,69.752,185.628,387.912,185.628,387.912C162.327,424.963,150.027,467.49,150.027,510.916C150.027,642.745,262.18,750.023,400.034,750.023C400.034,750.023,400.034,750.023,400.034,750.023M400.034,374.462C478.412,374.462,542.189,436.139,542.189,511.966C542.189,587.793,478.437,649.47,400.034,649.47C321.632,649.47,257.88,587.793,257.88,511.966C257.88,436.139,321.657,374.462,400.034,374.462C400.034,374.462,400.034,374.462,400.034,374.462M400.034,599.469C450.836,599.469,492.187,560.218,492.187,511.966C492.187,463.714,450.861,424.463,400.034,424.463C349.208,424.463,307.881,463.714,307.881,511.966C307.881,560.218,349.233,599.469,400.034,599.469C400.034,599.469,400.034,599.469,400.034,599.469" /></font>
</defs>
</svg>
